  0
SECTION
  2
HEADER
  9
$ACADVER
  1
AC1015
  9
$ACADMAINTVER
 70
    20
  9
$DWGCODEPAGE
  3
ANSI_1252
  9
$INSBASE
 10
0.0
 20
0.0
 30
0.0
  9
$EXTMIN
 10
-0.2242165953953879
 20
0.7481745876657396
 30
0.0
  9
$EXTMAX
 10
12.12940167010758
 20
11.38554046944059
 30
0.0
  9
$LIMMIN
 10
0.0
 20
0.0
  9
$LIMMAX
 10
12.0
 20
9.0
  9
$ORTHOMODE
 70
     1
  9
$REGENMODE
 70
     1
  9
$FILLMODE
 70
     1
  9
$QTEXTMODE
 70
     0
  9
$MIRRTEXT
 70
     1
  9
$LTSCALE
 40
1.0
  9
$ATTMODE
 70
     1
  9
$TEXTSIZE
 40
0.2
  9
$TRACEWID
 40
0.05
  9
$TEXTSTYLE
  7
Standard
  9
$CLAYER
  8
0
  9
$CELTYPE
  6
ByLayer
  9
$CECOLOR
 62
   256
  9
$CELTSCALE
 40
1.0
  9
$DISPSILH
 70
     0
  9
$DIMSCALE
 40
1.0
  9
$DIMASZ
 40
0.18
  9
$DIMEXO
 40
0.0625
  9
$DIMDLI
 40
0.38
  9
$DIMRND
 40
0.0
  9
$DIMDLE
 40
0.0
  9
$DIMEXE
 40
0.18
  9
$DIMTP
 40
0.0
  9
$DIMTM
 40
0.0
  9
$DIMTXT
 40
0.18
  9
$DIMCEN
 40
0.09
  9
$DIMTSZ
 40
0.0
  9
$DIMTOL
 70
     0
  9
$DIMLIM
 70
     0
  9
$DIMTIH
 70
     1
  9
$DIMTOH
 70
     1
  9
$DIMSE1
 70
     0
  9
$DIMSE2
 70
     0
  9
$DIMTAD
 70
     0
  9
$DIMZIN
 70
     0
  9
$DIMBLK
  1

  9
$DIMASO
 70
     1
  9
$DIMSHO
 70
     1
  9
$DIMPOST
  1

  9
$DIMAPOST
  1

  9
$DIMALT
 70
     0
  9
$DIMALTD
 70
     2
  9
$DIMALTF
 40
25.4
  9
$DIMLFAC
 40
1.0
  9
$DIMTOFL
 70
     0
  9
$DIMTVP
 40
0.0
  9
$DIMTIX
 70
     0
  9
$DIMSOXD
 70
     0
  9
$DIMSAH
 70
     0
  9
$DIMBLK1
  1

  9
$DIMBLK2
  1

  9
$DIMSTYLE
  2
Standard
  9
$DIMCLRD
 70
     0
  9
$DIMCLRE
 70
     0
  9
$DIMCLRT
 70
     0
  9
$DIMTFAC
 40
1.0
  9
$DIMGAP
 40
0.09
  9
$DIMJUST
 70
     0
  9
$DIMSD1
 70
     0
  9
$DIMSD2
 70
     0
  9
$DIMTOLJ
 70
     1
  9
$DIMTZIN
 70
     0
  9
$DIMALTZ
 70
     0
  9
$DIMALTTZ
 70
     0
  9
$DIMUPT
 70
     0
  9
$DIMDEC
 70
     2
  9
$DIMTDEC
 70
     2
  9
$DIMALTU
 70
     2
  9
$DIMALTTD
 70
     2
  9
$DIMTXSTY
  7
Standard
  9
$DIMAUNIT
 70
     0
  9
$DIMADEC
 70
     0
  9
$DIMALTRND
 40
0.0
  9
$DIMAZIN
 70
     0
  9
$DIMDSEP
 70
    46
  9
$DIMATFIT
 70
     3
  9
$DIMFRAC
 70
     0
  9
$DIMLDRBLK
  1

  9
$DIMLUNIT
 70
     2
  9
$DIMLWD
 70
    -2
  9
$DIMLWE
 70
    -2
  9
$DIMTMOVE
 70
     0
  9
$LUNITS
 70
     2
  9
$LUPREC
 70
     4
  9
$SKETCHINC
 40
0.1
  9
$FILLETRAD
 40
0.5
  9
$AUNITS
 70
     0
  9
$AUPREC
 70
     0
  9
$MENU
  1
.
  9
$ELEVATION
 40
0.0
  9
$PELEVATION
 40
0.0
  9
$THICKNESS
 40
0.0
  9
$LIMCHECK
 70
     0
  9
$CHAMFERA
 40
0.5
  9
$CHAMFERB
 40
0.5
  9
$CHAMFERC
 40
1.0
  9
$CHAMFERD
 40
0.0
  9
$SKPOLY
 70
     0
  9
$TDCREATE
 40
2452317.360977430
  9
$TDUCREATE
 40
2452317.569310764
  9
$TDUPDATE
 40
2454097.577959838
  9
$TDUUPDATE
 40
2454097.786293171
  9
$TDINDWG
 40
0.0031091319
  9
$TDUSRTIMER
 40
0.0031091319
  9
$USRTIMER
 70
     1
  9
$ANGBASE
 50
0.0
  9
$ANGDIR
 70
     0
  9
$PDMODE
 70
     0
  9
$PDSIZE
 40
0.0
  9
$PLINEWID
 40
0.0
  9
$SPLFRAME
 70
     0
  9
$SPLINETYPE
 70
     6
  9
$SPLINESEGS
 70
     8
  9
$HANDSEED
  5
261
  9
$SURFTAB1
 70
     6
  9
$SURFTAB2
 70
     6
  9
$SURFTYPE
 70
     6
  9
$SURFU
 70
     6
  9
$SURFV
 70
     6
  9
$UCSBASE
  2

  9
$UCSNAME
  2

  9
$UCSORG
 10
0.0
 20
0.0
 30
0.0
  9
$UCSXDIR
 10
1.0
 20
0.0
 30
0.0
  9
$UCSYDIR
 10
0.0
 20
1.0
 30
0.0
  9
$UCSORTHOREF
  2

  9
$UCSORTHOVIEW
 70
     0
  9
$UCSORGTOP
 10
0.0
 20
0.0
 30
0.0
  9
$UCSORGBOTTOM
 10
0.0
 20
0.0
 30
0.0
  9
$UCSORGLEFT
 10
0.0
 20
0.0
 30
0.0
  9
$UCSORGRIGHT
 10
0.0
 20
0.0
 30
0.0
  9
$UCSORGFRONT
 10
0.0
 20
0.0
 30
0.0
  9
$UCSORGBACK
 10
0.0
 20
0.0
 30
0.0
  9
$PUCSBASE
  2

  9
$PUCSNAME
  2

  9
$PUCSORG
 10
0.0
 20
0.0
 30
0.0
  9
$PUCSXDIR
 10
1.0
 20
0.0
 30
0.0
  9
$PUCSYDIR
 10
0.0
 20
1.0
 30
0.0
  9
$PUCSORTHOREF
  2

  9
$PUCSORTHOVIEW
 70
     0
  9
$PUCSORGTOP
 10
0.0
 20
0.0
 30
0.0
  9
$PUCSORGBOTTOM
 10
0.0
 20
0.0
 30
0.0
  9
$PUCSORGLEFT
 10
0.0
 20
0.0
 30
0.0
  9
$PUCSORGRIGHT
 10
0.0
 20
0.0
 30
0.0
  9
$PUCSORGFRONT
 10
0.0
 20
0.0
 30
0.0
  9
$PUCSORGBACK
 10
0.0
 20
0.0
 30
0.0
  9
$USERI1
 70
     0
  9
$USERI2
 70
     0
  9
$USERI3
 70
     0
  9
$USERI4
 70
     0
  9
$USERI5
 70
     0
  9
$USERR1
 40
0.0
  9
$USERR2
 40
0.0
  9
$USERR3
 40
0.0
  9
$USERR4
 40
0.0
  9
$USERR5
 40
0.0
  9
$WORLDVIEW
 70
     1
  9
$SHADEDGE
 70
     3
  9
$SHADEDIF
 70
    70
  9
$TILEMODE
 70
     1
  9
$MAXACTVP
 70
    64
  9
$PINSBASE
 10
0.0
 20
0.0
 30
0.0
  9
$PLIMCHECK
 70
     0
  9
$PEXTMIN
 10
1.000000000000000E+20
 20
1.000000000000000E+20
 30
1.000000000000000E+20
  9
$PEXTMAX
 10
-1.000000000000000E+20
 20
-1.000000000000000E+20
 30
-1.000000000000000E+20
  9
$PLIMMIN
 10
0.0
 20
0.0
  9
$PLIMMAX
 10
12.0
 20
9.0
  9
$UNITMODE
 70
     0
  9
$VISRETAIN
 70
     1
  9
$PLINEGEN
 70
     0
  9
$PSLTSCALE
 70
     1
  9
$TREEDEPTH
 70
  3020
  9
$CMLSTYLE
  2
Standard
  9
$CMLJUST
 70
     0
  9
$CMLSCALE
 40
1.0
  9
$PROXYGRAPHICS
 70
     1
  9
$MEASUREMENT
 70
     0
  9
$CELWEIGHT
370
    -1
  9
$ENDCAPS
280
     0
  9
$JOINSTYLE
280
     0
  9
$LWDISPLAY
290
     0
  9
$INSUNITS
 70
     1
  9
$HYPERLINKBASE
  1

  9
$STYLESHEET
  1

  9
$XEDIT
290
     1
  9
$CEPSNTYPE
380
     0
  9
$PSTYLEMODE
290
     1
  9
$FINGERPRINTGUID
  2
{DC175E3D-AE85-11D5-9A93-0040C77E826B}
  9
$VERSIONGUID
  2
{54B7CFC6-BCB4-44FC-A332-BE031CBA7133}
  9
$EXTNAMES
290
     1
  9
$PSVPSCALE
 40
0.0
  9
$OLESTARTUP
290
     0
  0
ENDSEC
  0
SECTION
  2
CLASSES
  0
CLASS
  1
ACDBDICTIONARYWDFLT
  2
AcDbDictionaryWithDefault
  3
ObjectDBX Classes
 90
        0
280
     0
281
     0
  0
CLASS
  1
ACDBPLACEHOLDER
  2
AcDbPlaceHolder
  3
ObjectDBX Classes
 90
        0
280
     0
281
     0
  0
CLASS
  1
LAYOUT
  2
AcDbLayout
  3
ObjectDBX Classes
 90
        0
280
     0
281
     0
  0
CLASS
  1
TABLESTYLE
  2
AcDbTableStyle
  3
ObjectDBX Classes
 90
     2047
280
     0
281
     0
  0
CLASS
  1
SORTENTSTABLE
  2
AcDbSortentsTable
  3
ObjectDBX Classes
 90
        0
280
     0
281
     0
  0
CLASS
  1
DICTIONARYVAR
  2
AcDbDictionaryVar
  3
ObjectDBX Classes
 90
        0
280
     0
281
     0
  0
ENDSEC
  0
SECTION
  2
TABLES
  0
TABLE
  2
VPORT
  5
8
330
0
100
AcDbSymbolTable
 70
     3
  0
VPORT
  5
259
330
8
100
AcDbSymbolTableRecord
100
AcDbViewportTableRecord
  2
*Active
 70
     0
 10
0.0
 20
0.0
 11
1.0
 21
1.0
 12
4.467928018353481
 22
5.312667338920643
 13
0.0
 23
0.0
 14
0.5
 24
0.5
 15
0.5
 25
0.5
 16
0.0
 26
0.0
 36
1.0
 17
0.0
 27
0.0
 37
0.0
 40
13.42082148406098
 41
1.466327827191867
 42
50.0
 43
0.0
 44
0.0
 50
0.0
 51
0.0
 71
     0
 72
   100
 73
     1
 74
     3
 75
     0
 76
     0
 77
     0
 78
     0
281
     0
 65
     1
110
0.0
120
0.0
130
0.0
111
1.0
121
0.0
131
0.0
112
0.0
122
1.0
132
0.0
 79
     0
146
0.0
  0
ENDTAB
  0
TABLE
  2
LTYPE
  5
5
330
0
100
AcDbSymbolTable
 70
     1
  0
LTYPE
  5
14
330
5
100
AcDbSymbolTableRecord
100
AcDbLinetypeTableRecord
  2
ByBlock
 70
     0
  3

 72
    65
 73
     0
 40
0.0
  0
LTYPE
  5
15
330
5
100
AcDbSymbolTableRecord
100
AcDbLinetypeTableRecord
  2
ByLayer
 70
     0
  3

 72
    65
 73
     0
 40
0.0
  0
LTYPE
  5
16
330
5
100
AcDbSymbolTableRecord
100
AcDbLinetypeTableRecord
  2
Continuous
 70
     0
  3
Solid line
 72
    65
 73
     0
 40
0.0
  0
ENDTAB
  0
TABLE
  2
LAYER
  5
2
102
{ACAD_XDICTIONARY
360
21A
102
}
330
0
100
AcDbSymbolTable
 70
     5
  0
LAYER
  5
10
330
2
100
AcDbSymbolTableRecord
100
AcDbLayerTableRecord
  2
0
 70
     0
 62
     7
  6
Continuous
370
    -3
390
F
  0
LAYER
  5
34
330
2
100
AcDbSymbolTableRecord
100
AcDbLayerTableRecord
  2
L
 70
     0
 62
     7
  6
Continuous
370
    -3
390
F
  0
LAYER
  5
45
330
2
100
AcDbSymbolTableRecord
100
AcDbLayerTableRecord
  2
Defpoints
 70
     0
 62
     7
  6
Continuous
290
     0
370
    -3
390
F
  0
LAYER
  5
88
330
2
100
AcDbSymbolTableRecord
100
AcDbLayerTableRecord
  2
tx
 70
     0
 62
   150
  6
Continuous
370
    -3
390
F
  0
LAYER
  5
211
330
2
100
AcDbSymbolTableRecord
100
AcDbLayerTableRecord
  2
MAIN
 70
     0
 62
     7
  6
Continuous
370
    -3
390
F
  0
ENDTAB
  0
TABLE
  2
STYLE
  5
3
330
0
100
AcDbSymbolTable
 70
     6
  0
STYLE
  5
11
330
3
100
AcDbSymbolTableRecord
100
AcDbTextStyleTableRecord
  2
Standard
 70
     0
 40
0.0
 41
1.0
 50
0.0
 71
     0
 42
0.2
  3
txt
  4

  0
STYLE
  5
35
330
3
100
AcDbSymbolTableRecord
100
AcDbTextStyleTableRecord
  2
REG
 70
     0
 40
0.0
 41
1.0
 50
0.0
 71
     0
 42
0.09375
  3
E:\R13\com\fonts\ARCHITXT.SHX
  4

  0
STYLE
  5
36
330
3
100
AcDbSymbolTableRecord
100
AcDbTextStyleTableRecord
  2
DIMTXT
 70
     0
 40
0.0
 41
1.0
 50
0.0
 71
     0
 42
1.125
  3
archt.shx
  4

  0
STYLE
  5
212
330
3
100
AcDbSymbolTableRecord
100
AcDbTextStyleTableRecord
  2
BLD
 70
     0
 40
0.0
 41
1.0
 50
0.0
 71
     0
 42
0.09375
  3
romand.shx
  4

  0
STYLE
  5
213
330
3
100
AcDbSymbolTableRecord
100
AcDbTextStyleTableRecord
  2
REG2
 70
     0
 40
0.0
 41
0.9
 50
0.0
 71
     0
 42
0.75
  3
E:\R13\com\fonts\romans.shx
  4

  0
STYLE
  5
214
330
3
100
AcDbSymbolTableRecord
100
AcDbTextStyleTableRecord
  2
ROM2
 70
     0
 40
0.0
 41
0.95
 50
0.0
 71
     0
 42
1.0
  3
ROMANS
  4

  0
ENDTAB
  0
TABLE
  2
VIEW
  5
6
330
0
100
AcDbSymbolTable
 70
     0
  0
ENDTAB
  0
TABLE
  2
UCS
  5
7
330
0
100
AcDbSymbolTable
 70
     0
  0
ENDTAB
  0
TABLE
  2
APPID
  5
9
330
0
100
AcDbSymbolTable
 70
     2
  0
APPID
  5
12
330
9
100
AcDbSymbolTableRecord
100
AcDbRegAppTableRecord
  2
ACAD
 70
     0
  0
APPID
  5
219
330
9
100
AcDbSymbolTableRecord
100
AcDbRegAppTableRecord
  2
ACAD_PSEXT
 70
     0
  0
ENDTAB
  0
TABLE
  2
DIMSTYLE
  5
A
330
0
100
AcDbSymbolTable
 70
    10
100
AcDbDimStyleTable
 71
     1
340
27
  0
DIMSTYLE
105
27
102
{ACAD_REACTORS
330
227
330
235
102
}
330
A
100
AcDbSymbolTableRecord
100
AcDbDimStyleTableRecord
  2
Standard
 70
     0
271
     2
272
     2
340
11
  0
DIMSTYLE
105
37
330
A
100
AcDbSymbolTableRecord
100
AcDbDimStyleTableRecord
  2
1
 70
     0
 41
1.125
 42
0.5
 43
0.375
 44
1.19921875
 46
0.5
 73
     0
 74
     0
 77
     1
 78
     3
140
1.125
141
0.125
146
0.8
147
0.5625
172
     1
174
     1
176
   133
177
   133
178
   150
271
     3
272
     3
276
     1
279
     1
340
36
  0
DIMSTYLE
105
38
330
A
100
AcDbSymbolTableRecord
100
AcDbDimStyleTableRecord
  2
1$2
 70
     0
 41
1.5
 42
0.5
 43
0.375
 44
1.19921875
 46
0.5
 73
     0
 74
     0
 77
     1
 78
     3
140
0.75
141
0.125
146
0.8
147
0.5625
172
     1
174
     1
176
   133
177
   133
178
   150
271
     3
272
     3
276
     1
279
     1
340
36
342
30
  0
DIMSTYLE
105
39
330
A
100
AcDbSymbolTableRecord
100
AcDbDimStyleTableRecord
  2
1$4
 70
     0
 41
1.5
 42
0.5
 43
0.375
 44
1.19921875
 46
0.5
 73
     0
 74
     0
 77
     1
 78
     3
140
0.75
141
0.125
146
0.8
147
0.5625
172
     1
173
     1
174
     1
176
   133
177
   133
178
   150
271
     3
272
     3
276
     1
279
     1
340
36
344
30
  0
DIMSTYLE
105
3A
330
A
100
AcDbSymbolTableRecord
100
AcDbDimStyleTableRecord
  2
1$3
 70
     0
 41
1.5
 42
0.5
 43
0.375
 44
1.19921875
 46
0.5
 73
     0
 74
     0
 77
     1
 78
     3
140
0.75
141
0.125
146
0.8
147
0.5625
172
     1
174
     1
176
   133
177
   133
178
   150
271
     3
272
     3
276
     1
279
     1
340
36
342
30
  0
DIMSTYLE
105
3B
330
A
100
AcDbSymbolTableRecord
100
AcDbDimStyleTableRecord
  2
1$7
 70
     0
 41
1.0
 42
0.5
 43
0.375
 44
1.19921875
 46
0.5
 73
     0
 74
     0
 77
     1
 78
     3
140
0.75
141
0.125
146
0.8
147
0.5625
172
     1
174
     1
176
   133
177
   133
178
   150
271
     3
272
     3
276
     1
279
     1
340
36
341
2B
  0
DIMSTYLE
105
215
330
A
100
AcDbSymbolTableRecord
100
AcDbDimStyleTableRecord
  2
Standard$2
 70
     0
 40
0.0
 41
0.625
 42
0.5
 43
0.375
 44
0.375
 78
     4
 79
     1
140
0.625
141
0.125
146
0.8
147
0.25
176
   133
177
   133
178
   150
271
     3
272
     3
276
     1
288
     1
340
214
  0
DIMSTYLE
105
216
330
A
100
AcDbSymbolTableRecord
100
AcDbDimStyleTableRecord
  2
Standard$4
 70
     0
 40
0.0
 41
0.625
 42
0.5
 43
0.375
 44
0.375
 78
     4
 79
     1
140
0.625
141
0.125
146
0.8
147
0.25
173
     1
176
   133
177
   133
178
   150
271
     3
272
     3
276
     1
288
     1
340
214
343
30
  0
DIMSTYLE
105
217
330
A
100
AcDbSymbolTableRecord
100
AcDbDimStyleTableRecord
  2
Standard$3
 70
     0
 40
0.0
 41
0.625
 42
0.5
 43
0.375
 44
0.375
 78
     4
 79
     1
140
0.625
141
0.125
146
0.8
147
0.25
176
   133
177
   133
178
   150
271
     3
272
     3
276
     1
288
     1
340
214
  0
DIMSTYLE
105
218
330
A
100
AcDbSymbolTableRecord
100
AcDbDimStyleTableRecord
  2
Standard$7
 70
     0
 40
0.0
 41
0.625
 42
0.5
 43
0.375
 44
0.375
 78
     4
 79
     1
140
0.5
141
0.125
146
0.8
147
0.25
176
   133
177
   133
178
   150
271
     3
272
     3
276
     1
289
     0
340
214
342
30
  0
ENDTAB
  0
TABLE
  2
BLOCK_RECORD
  5
1
330
0
100
AcDbSymbolTable
 70
     8
  0
BLOCK_RECORD
  5
1F
330
1
100
AcDbSymbolTableRecord
100
AcDbBlockTableRecord
  2
*Model_Space
340
22
  0
BLOCK_RECORD
  5
1B
330
1
100
AcDbSymbolTableRecord
100
AcDbBlockTableRecord
  2
*Paper_Space
340
1E
  0
BLOCK_RECORD
  5
23
330
1
100
AcDbSymbolTableRecord
100
AcDbBlockTableRecord
  2
*Paper_Space0
340
26
  0
BLOCK_RECORD
  5
2B
330
1
100
AcDbSymbolTableRecord
100
AcDbBlockTableRecord
  2
_Dot
340
0
  0
BLOCK_RECORD
  5
30
330
1
100
AcDbSymbolTableRecord
100
AcDbBlockTableRecord
  2
_DotSmall
340
0
  0
BLOCK_RECORD
  5
228
330
1
100
AcDbSymbolTableRecord
100
AcDbBlockTableRecord
  2
*D5
340
0
  0
BLOCK_RECORD
  5
236
330
1
100
AcDbSymbolTableRecord
100
AcDbBlockTableRecord
  2
*D6
340
0
  0
ENDTAB
  0
ENDSEC
  0
SECTION
  2
BLOCKS
  0
BLOCK
  5
20
330
1F
100
AcDbEntity
  8
0
100
AcDbBlockBegin
  2
*Model_Space
 70
     0
 10
0.0
 20
0.0
 30
0.0
  3
*Model_Space
  1

  0
ENDBLK
  5
21
330
1F
100
AcDbEntity
  8
0
100
AcDbBlockEnd
  0
BLOCK
  5
1C
330
1B
100
AcDbEntity
 67
     1
  8
0
100
AcDbBlockBegin
  2
*Paper_Space
 70
     0
 10
0.0
 20
0.0
 30
0.0
  3
*Paper_Space
  1

  0
ENDBLK
  5
1D
330
1B
100
AcDbEntity
 67
     1
  8
0
100
AcDbBlockEnd
  0
BLOCK
  5
24
330
23
100
AcDbEntity
  8
0
100
AcDbBlockBegin
  2
*Paper_Space0
 70
     0
 10
0.0
 20
0.0
 30
0.0
  3
*Paper_Space0
  1

  0
ENDBLK
  5
25
330
23
100
AcDbEntity
  8
0
100
AcDbBlockEnd
  0
BLOCK
  5
2E
330
2B
100
AcDbEntity
  8
0
100
AcDbBlockBegin
  2
_Dot
 70
     0
 10
0.0
 20
0.0
 30
0.0
  3
_Dot
  1

  0
LWPOLYLINE
  5
2C
330
2B
100
AcDbEntity
  8
L
 62
     0
100
AcDbPolyline
 90
        2
 70
     1
 43
0.5
 10
-0.25
 20
0.0
 42
1.0
 10
0.25
 20
0.0
 42
1.0
  0
LINE
  5
2D
330
2B
100
AcDbEntity
  8
L
 62
     0
370
    -2
100
AcDbLine
 10
-0.5
 20
0.0
 30
0.0
 11
-1.0
 21
0.0
 31
0.0
  0
ENDBLK
  5
2F
330
2B
100
AcDbEntity
  8
0
100
AcDbBlockEnd
  0
BLOCK
  5
32
330
30
100
AcDbEntity
  8
0
 48
0.116666
100
AcDbBlockBegin
  2
_DotSmall
 70
     0
 10
0.0
 20
0.0
 30
0.0
  3
_DotSmall
  1

  0
LWPOLYLINE
  5
31
330
30
100
AcDbEntity
  8
0
  6
ByBlock
 62
     0
100
AcDbPolyline
 90
        2
 70
     1
 43
0.5
 10
-0.0625
 20
0.0
 42
1.0
 10
0.0625
 20
0.0
 42
1.0
  0
ENDBLK
  5
33
330
30
100
AcDbEntity
  8
0
 48
0.116666
100
AcDbBlockEnd
  0
BLOCK
  5
233
330
228
100
AcDbEntity
  8
0
100
AcDbBlockBegin
  2
*D5
 70
     1
 10
0.0
 20
0.0
 30
0.0
  3
*D5
  1

  0
LINE
  5
229
330
228
100
AcDbEntity
  8
0
 62
     0
370
    -2
100
AcDbLine
 10
1.976643036196897
 20
10.78965611798552
 30
0.0
 11
-0.1492165953953862
 21
10.78965611798552
 31
0.0
  0
LINE
  5
22A
330
228
100
AcDbEntity
  8
0
 62
     0
370
    -2
100
AcDbLine
 10
1.473643036196286
 20
2.289656117985526
 30
0.0
 11
-0.1492165953953878
 21
2.289656117985526
 31
0.0
  0
LINE
  5
22B
330
228
100
AcDbEntity
  8
0
 62
     0
370
    -2
100
AcDbLine
 10
0.0307834046046141
 20
10.60965611798552
 30
0.0
 11
0.0307834046046132
 21
6.719656117985525
 31
0.0
  0
LINE
  5
22C
330
228
100
AcDbEntity
  8
0
 62
     0
370
    -2
100
AcDbLine
 10
0.0307834046046122
 20
2.469656117985526
 30
0.0
 11
0.0307834046046131
 21
6.359656117985526
 31
0.0
  0
SOLID
  5
22D
330
228
100
AcDbEntity
  8
0
 62
     0
100
AcDbTrace
 10
0.000783404604614
 20
10.60965611798552
 30
0.0
 11
0.0607834046046141
 21
10.60965611798552
 31
0.0
 12
0.0307834046046141
 22
10.78965611798552
 32
0.0
 13
0.0307834046046141
 23
10.78965611798552
 33
0.0
  0
SOLID
  5
22E
330
228
100
AcDbEntity
  8
0
 62
     0
100
AcDbTrace
 10
0.0007834046046122
 20
2.469656117985526
 30
0.0
 11
0.0607834046046122
 21
2.469656117985526
 31
0.0
 12
0.0307834046046122
 22
2.289656117985526
 32
0.0
 13
0.0307834046046122
 23
2.289656117985526
 33
0.0
  0
MTEXT
  5
22F
330
228
100
AcDbEntity
  8
0
 62
     0
100
AcDbMText
 10
0.0307834046046121
 20
6.539656117985526
 30
0.0
 40
0.18
 41
0.0
 71
     5
 72
     1
  1
\A1;8.50
 73
     1
 44
1.0
1001
ACAD
1000
MTEXTBEGIN
1070
    73
1070
     1
1070
    44
1040
1.0
1070
    74
1070
     0
1000
MTEXTEND
  0
POINT
  5
230
330
228
100
AcDbEntity
  8
Defpoints
 62
     0
100
AcDbPoint
 10
2.039143036196897
 20
10.78965611798552
 30
0.0
  0
POINT
  5
231
330
228
100
AcDbEntity
  8
Defpoints
 62
     0
100
AcDbPoint
 10
1.536143036196286
 20
2.289656117985526
 30
0.0
  0
POINT
  5
232
330
228
100
AcDbEntity
  8
Defpoints
 62
     0
100
AcDbPoint
 10
0.0307834046046122
 20
2.289656117985526
 30
0.0
  0
ENDBLK
  5
234
330
228
100
AcDbEntity
  8
0
100
AcDbBlockEnd
  0
BLOCK
  5
241
330
236
100
AcDbEntity
  8
0
100
AcDbBlockBegin
  2
*D6
 70
     1
 10
0.0
 20
0.0
 30
0.0
  3
*D6
  1

  0
LINE
  5
237
330
236
100
AcDbEntity
  8
0
 62
     0
370
    -2
100
AcDbLine
 10
1.32114303619614
 20
9.759656117984871
 30
0.0
 11
1.32114303619614
 21
11.38554046944059
 31
0.0
  0
LINE
  5
238
330
236
100
AcDbEntity
  8
0
 62
     0
370
    -2
100
AcDbLine
 10
5.182162579996333
 20
2.501595521284345
 30
0.0
 11
5.182162579996334
 21
11.38554046944059
 31
0.0
  0
LINE
  5
239
330
236
100
AcDbEntity
  8
0
 62
     0
370
    -2
100
AcDbLine
 10
1.50114303619614
 20
11.20554046944059
 30
0.0
 11
2.891652808096237
 21
11.20554046944059
 31
0.0
  0
LINE
  5
23A
330
236
100
AcDbEntity
  8
0
 62
     0
370
    -2
100
AcDbLine
 10
5.002162579996334
 20
11.20554046944059
 30
0.0
 11
3.611652808096237
 21
11.20554046944059
 31
0.0
  0
SOLID
  5
23B
330
236
100
AcDbEntity
  8
0
 62
     0
100
AcDbTrace
 10
1.50114303619614
 20
11.23554046944059
 30
0.0
 11
1.50114303619614
 21
11.17554046944059
 31
0.0
 12
1.32114303619614
 22
11.20554046944059
 32
0.0
 13
1.32114303619614
 23
11.20554046944059
 33
0.0
  0
SOLID
  5
23C
330
236
100
AcDbEntity
  8
0
 62
     0
100
AcDbTrace
 10
5.002162579996334
 20
11.23554046944059
 30
0.0
 11
5.002162579996334
 21
11.17554046944059
 31
0.0
 12
5.182162579996334
 22
11.20554046944059
 32
0.0
 13
5.182162579996334
 23
11.20554046944059
 33
0.0
  0
MTEXT
  5
23D
330
236
100
AcDbEntity
  8
0
 62
     0
100
AcDbMText
 10
3.251652808096237
 20
11.20554046944059
 30
0.0
 40
0.18
 41
0.0
 71
     5
 72
     1
  1
\A1;3.86
 73
     1
 44
1.0
1001
ACAD
1000
MTEXTBEGIN
1070
    73
1070
     1
1070
    44
1040
1.0
1070
    74
1070
     0
1000
MTEXTEND
  0
POINT
  5
23E
330
236
100
AcDbEntity
  8
Defpoints
 62
     0
100
AcDbPoint
 10
1.32114303619614
 20
9.697156117984871
 30
0.0
  0
POINT
  5
23F
330
236
100
AcDbEntity
  8
Defpoints
 62
     0
100
AcDbPoint
 10
5.182162579996333
 20
2.439095521284345
 30
0.0
  0
POINT
  5
240
330
236
100
AcDbEntity
  8
Defpoints
 62
     0
100
AcDbPoint
 10
5.182162579996334
 20
11.20554046944059
 30
0.0
  0
ENDBLK
  5
242
330
236
100
AcDbEntity
  8
0
100
AcDbBlockEnd
  0
ENDSEC
  0
SECTION
  2
ENTITIES
  0
TEXT
  5
BE
330
1F
100
AcDbEntity
  8
tx
  6
Continuous
 48
0.233332
100
AcDbText
 10
0.5068845066649459
 20
0.7514073462864293
 30
0.0
 40
0.09375
  1
SCALE : 1" = 1"
  7
REG
 11
0.5068845066649459
 21
0.8451573462864292
 31
0.0
100
AcDbText
 73
     3
  0
TEXT
  5
BF
330
1F
100
AcDbEntity
  8
L
  6
Continuous
 62
     3
 48
0.233332
100
AcDbText
 10
0.5068845066649459
 20
1.032629031648513
 30
0.0
 40
0.140625
  1
TWO PIECE TRANSFORMER RACEWAY (Back) #1982
  7
REG
100
AcDbText
  0
LWPOLYLINE
  5
C0
330
1F
100
AcDbEntity
  8
L
  6
Continuous
 62
     5
 48
0.233332
100
AcDbPolyline
 90
        2
 70
     0
 43
0.028125
 10
0.4131486639839608
 20
0.9388931889674712
 10
6.417978819803394
 20
0.9388931889674712
  0
DIMENSION
  5
227
330
1F
100
AcDbEntity
  8
0
100
AcDbDimension
  2
*D5
 10
0.0307834046046122
 20
2.289656117985526
 30
0.0
 11
0.0307834046046121
 21
6.539656117985526
 31
0.0
 70
    32
 71
     5
 42
8.5
  3
Standard
100
AcDbAlignedDimension
 13
2.039143036196897
 23
10.78965611798552
 33
0.0
 14
1.536143036196286
 24
2.289656117985526
 34
0.0
 50
90.0
100
AcDbRotatedDimension
  0
DIMENSION
  5
235
330
1F
100
AcDbEntity
  8
0
100
AcDbDimension
  2
*D6
 10
5.182162579996334
 20
11.20554046944059
 30
0.0
 11
3.251652808096237
 21
11.20554046944059
 31
0.0
 70
    32
 71
     5
 42
3.861019543800193
  3
Standard
100
AcDbAlignedDimension
 13
1.32114303619614
 23
9.697156117984871
 33
0.0
 14
5.182162579996333
 24
2.439095521284345
 34
0.0
100
AcDbRotatedDimension
  0
LWPOLYLINE
  5
255
330
1F
100
AcDbEntity
  8
MAIN
 62
     3
 48
0.116666
100
AcDbPolyline
 90
      141
 70
     0
 43
0.0
 10
2.143274930583125
 20
10.66498541156265
 42
-2.271224714813637
 10
2.039143036196897
 20
10.78965611798552
 10
2.334143036196969
 20
10.78965611798552
 42
-0.4142135623531162
 10
2.374143036196024
 20
10.74965611798556
 10
2.374143036199662
 20
10.17965611798585
 42
-0.4142135623664355
 10
2.334143036198788
 20
10.13965611798589
 10
2.004068776565823
 20
10.13965611798771
 42
0.5768290982984704
 10
1.986732651022016
 20
10.10968321715112
 42
-0.1996823906106675
 10
2.002843497401904
 20
9.984361619342546
 42
-1.000000000027919
 10
1.925663941797161
 20
10.00541669466978
 42
2.15723989123841
 10
1.808778794792438
 20
9.95091225549417
 42
-0.9999999999999998
 10
1.775297856188394
 20
9.878255344260235
 42
-0.0094242321136282
 10
1.769716314135571
 20
9.880956039447067
 42
0.5594565819301401
 10
1.726143036194976
 20
9.85420219506572
 10
1.726143036196795
 20
9.767156117986399
 42
-0.294334186374374
 10
1.649838688602308
 20
9.648763648153856
 10
1.649838688193035
 20
9.648763649056984
 42
0.2943341863565796
 10
1.591143036196577
 20
9.557692518416427
 10
1.591143036196577
 20
9.514656117980432
 42
-0.3707699771096511
 10
1.506143034633119
 20
9.415787539180694
 42
0.3707699771209516
 10
1.421143036198323
 20
9.316918939752707
 10
1.421143036198323
 20
3.264405940694398
 42
0.3996375325557569
 10
1.51614303669789
 20
3.164531039826709
 42
-0.3996375326958145
 10
1.611143036197013
 20
3.064656117985162
 10
1.611143036197013
 20
3.011341926982407
 42
0.2679491727033376
 10
1.661143029820728
 20
2.924739390286543
 42
-0.2679491727143612
 10
1.726143036196795
 20
2.812156117980105
 10
1.726143036196795
 20
2.819656117984361
 10
1.726143036200433
 20
2.7177798281114
 42
0.5594565818940409
 10
1.769716298577755
 20
2.691026014395486
 42
-0.1860603980162532
 10
1.887437534843179
 20
2.703026366396937
 42
-0.9999999999970079
 10
1.86638245951412
 20
2.625846810794921
 42
2.155379852331945
 10
1.920840260337122
 20
2.508860629092435
 42
-0.9999999999896809
 10
1.993453016923872
 20
2.475284036335818
 42
-0.0657559691513678
 10
1.970406881296135
 20
2.438885387675821
 42
0.6362400634351979
 10
1.993433717533612
 20
2.389656117985889
 10
4.753991269236344
 20
2.389656117986799
 42
0.2297608238387373
 10
4.852168034728443
 20
2.437284783271518
 42
-0.4131589802556073
 10
5.164714079203754
 20
2.474897707055372
 42
-0.9581127561434541
 10
5.111862582290036
 20
2.401031139902936
 42
0.5521528395434317
 10
4.907308508284536
 20
2.307041739024082
 10
4.907308509363197
 20
2.307041738882201
 42
-0.376317857156173
 10
4.887480120073583
 20
2.289656117985526
 10
1.536143036196286
 20
2.289656117985526
 42
-0.4142135623730951
 10
1.456143036196358
 20
2.369656117985453
 10
1.456143036198177
 20
2.572156117984871
 42
-0.4142135623553361
 10
1.486143036197013
 20
2.602156117985526
 10
1.516143036197668
 20
2.602156117985526
 42
-0.4142135623553361
 10
1.546143036196504
 20
2.572156117984871
 10
1.546143036196504
 20
2.522156117984689
 42
-0.4142135623997336
 10
1.536143036196286
 20
2.512156117983561
 42
0.414213562426372
 10
1.526143036196067
 20
2.502156117985162
 10
1.526143036196067
 20
2.459656117985598
 42
0.4142135623730951
 10
1.536143036196286
 20
2.44965611798538
 42
-0.4142135623730951
 10
1.546143036196504
 20
2.439656117985162
 10
1.546143036196504
 20
2.389656117985889
 42
0.4142135624530105
 10
1.556143036196722
 20
2.379656117985671
 10
1.62614303619825
 20
2.379656117985671
 42
0.4142135622665412
 10
1.636143036198468
 20
2.38965611798498
 10
1.636143036196649
 20
2.439656117985162
 42
-0.4142135624796489
 10
1.646143036196868
 20
2.44965611798538
 42
0.4142135623464566
 10
1.656143036197086
 20
2.459656117984689
 10
1.656143036198905
 20
2.502156117985162
 42
0.414213562426372
 10
1.646143036196868
 20
2.51215611798538
 42
-0.4142135623730951
 10
1.636143036198468
 20
2.522156117983779
 10
1.636143036196649
 20
2.812156117984653
 42
0.4142135623864143
 10
1.596143036197595
 20
2.852156117985526
 10
1.531143036197086
 20
2.852156117985526
 42
-0.4142135623819746
 10
1.50114303619825
 20
2.882156117985271
 10
1.50114303619825
 20
2.932156117985453
 42
-0.4142135623997336
 10
1.511143036198468
 20
2.942156117983852
 42
0.4142135623464566
 10
1.521143036196868
 20
2.95215611798498
 10
1.521143036196868
 20
2.994656117985453
 42
0.4142135621067102
 10
1.511143036196649
 20
3.004656117985671
 42
-0.4142135623198181
 10
1.50114303619825
 20
3.01465611798498
 10
1.501143036196431
 20
3.064656117985162
 42
0.4142135623198181
 10
1.491143036198032
 20
3.07465611798538
 10
1.421143036196504
 20
3.07465611798538
 42
0.4142135623198181
 10
1.411143036198104
 20
3.064656117985162
 10
1.411143036196286
 20
3.01465611798498
 42
-0.4142135623464566
 10
1.401143036197886
 20
3.004656117983852
 42
0.4142135623730951
 10
1.391143036197668
 20
2.994656117985453
 10
1.391143036197668
 20
2.95215611798498
 42
0.4142135623997336
 10
1.401143036197886
 20
2.942156117983852
 42
-0.4142135623730951
 10
1.411143036196286
 20
2.932156117985453
 10
1.411143036198104
 20
2.882156117985271
 42
-0.4142135623642157
 10
1.38114303619745
 20
2.852156117985526
 10
1.351143036196795
 20
2.852156117985526
 42
-0.4142135623730951
 10
1.321143036197959
 20
2.882156117985271
 10
1.32114303619614
 20
9.697156117984871
 42
-0.414213562390854
 10
1.351143036196795
 20
9.727156117983707
 10
1.38114303619745
 20
9.727156117985526
 42
-0.4142135623730951
 10
1.411143036198104
 20
9.697156117984871
 10
1.411143036196286
 20
9.647156117985598
 42
-0.4142135623198181
 10
1.401143036197886
 20
9.63715611798538
 42
0.4142135623730951
 10
1.391143036197668
 20
9.627156117985162
 10
1.391143036197668
 20
9.584656117985598
 42
0.4142135623730951
 10
1.401143036197886
 20
9.57465611798538
 42
-0.4142135623198181
 10
1.411143036196286
 20
9.564656117985162
 10
1.411143036199923
 20
9.51465611798498
 42
0.4142135623464566
 10
1.421143036196504
 20
9.504656117985671
 10
1.491143036198032
 20
9.504656117985671
 42
0.4142135625595645
 10
1.50114303619825
 20
9.51465611798498
 10
1.50114303619825
 20
9.564656117985162
 42
-0.4142135622931796
 10
1.511143036196649
 20
9.57465611798538
 42
0.4142135622665412
 10
1.521143036196868
 20
9.584656117985598
 10
1.521143036196868
 20
9.627156117985162
 42
0.4142135623198181
 10
1.511143036198468
 20
9.63715611798538
 42
-0.4142135623198183
 10
1.501143036196431
 20
9.647156117985598
 10
1.501143036196431
 20
9.697156117984871
 42
-0.414213562390854
 10
1.531143036197086
 20
9.727156117983707
 10
1.596143036197595
 20
9.727156117985526
 42
0.4142135623730951
 10
1.636143036196649
 20
9.76715611798458
 10
1.636143036198468
 20
10.05715611798545
 42
-0.4142135623198181
 10
1.646143036196868
 20
10.06715611798567
 42
0.414213562479649
 10
1.656143036197086
 20
10.07715611798589
 10
1.656143036197086
 20
10.11965611798545
 42
0.4142135623730951
 10
1.646143036196868
 20
10.12965611798567
 42
-0.414213562426372
 10
1.636143036198468
 20
10.13965611798589
 10
1.636143036198468
 20
10.18965611798516
 42
0.4142135622665412
 10
1.62614303619825
 20
10.19965611798538
 10
1.556143036196722
 20
10.19965611798538
 42
0.4142135623198181
 10
1.546143036198323
 20
10.18965611798516
 10
1.546143036196504
 20
10.13965611798498
 42
-0.4142135625595645
 10
1.536143036196286
 20
10.12965611798567
 42
0.4142135623730951
 10
1.526143036196067
 20
10.11965611798545
 10
1.526143036196067
 20
10.07715611798589
 42
0.4142135623730951
 10
1.536143036196286
 20
10.06715611798567
 42
-0.4142135623730951
 10
1.546143036196504
 20
10.05715611798545
 10
1.546143036196504
 20
10.00715611798527
 42
-0.4142135623819744
 10
1.516143036197668
 20
9.977156117985526
 10
1.486143036197013
 20
9.977156117983707
 42
-0.4142135623375772
 10
1.456143036196358
 20
10.00715611798436
 10
1.456143036198177
 20
10.2096561179856
 42
-0.4142135623664355
 10
1.536143036198104
 20
10.28965611798552
 10
2.244143036196824
 20
10.28965611798279
 42
0.4142135623597758
 10
2.284143036197697
 20
10.32965611798549
 10
2.284143036197697
 20
10.65965611798541
 42
0.4142135623664355
 10
2.244143036196824
 20
10.69965611798538
 10
2.182918277426274
 20
10.69965611798538
 42
0.3755943261007734
 10
2.143274884982879
 20
10.66498541769264
  0
ENDSEC
  0
SECTION
  2
OBJECTS
  0
DICTIONARY
  5
C
330
0
100
AcDbDictionary
281
     1
  3
ACAD_COLOR
350
20B
  3
ACAD_GROUP
350
D
  3
ACAD_LAYOUT
350
1A
  3
ACAD_MATERIAL
350
20A
  3
ACAD_MLINESTYLE
350
17
  3
ACAD_PLOTSETTINGS
350
19
  3
ACAD_PLOTSTYLENAME
350
E
  3
ACAD_TABLESTYLE
350
20C
  3
ACDBHEADERROUNDTRIPXREC
350
25A
  3
AcDbVariableDictionary
350
244
  0
DICTIONARY
  5
21A
330
2
100
AcDbDictionary
280
     1
281
     1
  3
ACAD_LAYERSTATES
360
21B
  0
DICTIONARY
  5
20B
102
{ACAD_REACTORS
330
C
102
}
330
C
100
AcDbDictionary
281
     1
  0
DICTIONARY
  5
D
102
{ACAD_REACTORS
330
C
102
}
330
C
100
AcDbDictionary
281
     1
  0
DICTIONARY
  5
1A
102
{ACAD_REACTORS
330
C
102
}
330
C
100
AcDbDictionary
281
     1
  3
Layout1
350
1E
  3
Layout2
350
26
  3
Model
350
22
  0
DICTIONARY
  5
20A
102
{ACAD_REACTORS
330
C
102
}
330
C
100
AcDbDictionary
281
     1
  0
DICTIONARY
  5
17
102
{ACAD_REACTORS
330
C
102
}
330
C
100
AcDbDictionary
281
     1
  3
Standard
350
18
  0
DICTIONARY
  5
19
102
{ACAD_REACTORS
330
C
102
}
330
C
100
AcDbDictionary
281
     1
  0
ACDBDICTIONARYWDFLT
  5
E
102
{ACAD_REACTORS
330
C
102
}
330
C
100
AcDbDictionary
281
     1
  3
Normal
350
F
100
AcDbDictionaryWithDefault
340
F
  0
DICTIONARY
  5
20C
102
{ACAD_REACTORS
330
C
102
}
330
C
100
AcDbDictionary
281
     1
  3
Standard
350
20D
  0
DICTIONARY
  5
25A
102
{ACAD_REACTORS
330
C
102
}
330
C
100
AcDbDictionary
281
     1
  0
DICTIONARY
  5
244
102
{ACAD_REACTORS
330
C
102
}
330
C
100
AcDbDictionary
281
     1
  3
CTABLESTYLE
350
245
  3
DIMASSOC
350
257
  3
PROJECTNAME
350
258
  0
DICTIONARY
  5
21B
102
{ACAD_REACTORS
330
21A
102
}
330
21A
100
AcDbDictionary
281
     1
  0
LAYOUT
  5
1E
102
{ACAD_XDICTIONARY
360
25B
102
}
102
{ACAD_REACTORS
330
1A
102
}
330
1A
100
AcDbPlotSettings
  1

  2
EPSON Stylus COLOR 3000
  4

  6

 40
0.0
 41
0.0
 42
0.0
 43
0.0
 44
0.0
 45
0.0
 46
0.0
 47
0.0
 48
0.0
 49
0.0
140
0.0
141
0.0
142
1.0
143
1.0
 70
   688
 72
     0
 73
     0
 74
     5
  7

 75
    16
147
1.0
148
0.0
149
0.0
100
AcDbLayout
  1
Layout1
 70
     1
 71
     1
 10
0.0
 20
0.0
 11
12.0
 21
9.0
 12
0.0
 22
0.0
 32
0.0
 14
1.000000000000000E+20
 24
1.000000000000000E+20
 34
1.000000000000000E+20
 15
-1.000000000000000E+20
 25
-1.000000000000000E+20
 35
-1.000000000000000E+20
146
0.0
 13
0.0
 23
0.0
 33
0.0
 16
1.0
 26
0.0
 36
0.0
 17
0.0
 27
1.0
 37
0.0
 76
     0
330
1B
  0
LAYOUT
  5
26
102
{ACAD_XDICTIONARY
360
25F
102
}
102
{ACAD_REACTORS
330
1A
102
}
330
1A
100
AcDbPlotSettings
  1

  2
EPSON Stylus COLOR 3000
  4

  6

 40
0.0
 41
0.0
 42
0.0
 43
0.0
 44
0.0
 45
0.0
 46
0.0
 47
0.0
 48
0.0
 49
0.0
140
0.0
141
0.0
142
1.0
143
1.0
 70
   688
 72
     0
 73
     0
 74
     5
  7

 75
    16
147
1.0
148
0.0
149
0.0
100
AcDbLayout
  1
Layout2
 70
     1
 71
     2
 10
0.0
 20
0.0
 11
12.0
 21
9.0
 12
0.0
 22
0.0
 32
0.0
 14
0.0
 24
0.0
 34
0.0
 15
0.0
 25
0.0
 35
0.0
146
0.0
 13
0.0
 23
0.0
 33
0.0
 16
1.0
 26
0.0
 36
0.0
 17
0.0
 27
1.0
 37
0.0
 76
     0
330
23
  0
LAYOUT
  5
22
102
{ACAD_XDICTIONARY
360
25D
102
}
102
{ACAD_REACTORS
330
1A
102
}
330
1A
100
AcDbPlotSettings
  1

  2
EPSON Stylus COLOR 3000
  4

  6

 40
0.0
 41
0.0
 42
0.0
 43
0.0
 44
0.0
 45
0.0
 46
0.0
 47
0.0
 48
0.0
 49
0.0
140
0.0
141
0.0
142
1.0
143
1.0
 70
  1712
 72
     0
 73
     0
 74
     0
  7

 75
     0
147
1.0
148
0.0
149
0.0
100
AcDbLayout
  1
Model
 70
     1
 71
     0
 10
0.0
 20
0.0
 11
12.0
 21
9.0
 12
0.0
 22
0.0
 32
0.0
 14
0.0
 24
0.0
 34
0.0
 15
0.0
 25
0.0
 35
0.0
146
0.0
 13
0.0
 23
0.0
 33
0.0
 16
1.0
 26
0.0
 36
0.0
 17
0.0
 27
1.0
 37
0.0
 76
     0
330
1F
  0
MLINESTYLE
  5
18
102
{ACAD_REACTORS
330
17
102
}
330
17
100
AcDbMlineStyle
  2
STANDARD
 70
     0
  3

 62
   256
 51
90.0
 52
90.0
 71
     2
 49
0.5
 62
   256
  6
BYLAYER
 49
-0.5
 62
   256
  6
BYLAYER
  0
ACDBPLACEHOLDER
  5
F
102
{ACAD_REACTORS
330
E
102
}
330
E
  0
TABLESTYLE
  5
20D
102
{ACAD_REACTORS
330
20C
102
}
330
20C
100
AcDbTableStyle
  3
Standard
 70
     0
 71
     0
 40
0.06
 41
0.06
280
     0
281
     0
  7
Standard
140
0.18
170
     2
 62
     0
 63
     7
283
     0
274
    -2
284
     1
 64
     0
275
    -2
285
     1
 65
     0
276
    -2
286
     1
 66
     0
277
    -2
287
     1
 67
     0
278
    -2
288
     1
 68
     0
279
    -2
289
     1
 69
     0
  7
Standard
140
0.25
170
     5
 62
     0
 63
     7
283
     0
274
    -2
284
     1
 64
     0
275
    -2
285
     1
 65
     0
276
    -2
286
     1
 66
     0
277
    -2
287
     1
 67
     0
278
    -2
288
     1
 68
     0
279
    -2
289
     1
 69
     0
  7
Standard
140
0.18
170
     5
 62
     0
 63
     7
283
     0
274
    -2
284
     1
 64
     0
275
    -2
285
     1
 65
     0
276
    -2
286
     1
 66
     0
277
    -2
287
     1
 67
     0
278
    -2
288
     1
 68
     0
279
    -2
289
     1
 69
     0
  0
DICTIONARYVAR
  5
245
102
{ACAD_REACTORS
330
244
102
}
330
244
100
DictionaryVariables
280
     0
  1
STANDARD
  0
DICTIONARYVAR
  5
257
102
{ACAD_REACTORS
330
244
102
}
330
244
100
DictionaryVariables
280
     0
  1
1
  0
DICTIONARYVAR
  5
258
102
{ACAD_REACTORS
330
244
102
}
330
244
100
DictionaryVariables
280
     0
  1

  0
DICTIONARY
  5
25B
330
1E
100
AcDbDictionary
280
     1
281
     1
  3
ACAD_XREC_ROUNDTRIP
360
25C
  0
DICTIONARY
  5
25F
330
26
100
AcDbDictionary
280
     1
281
     1
  3
ACAD_XREC_ROUNDTRIP
360
260
  0
DICTIONARY
  5
25D
330
22
100
AcDbDictionary
280
     1
281
     1
  3
ACAD_XREC_ROUNDTRIP
360
25E
  0
XRECORD
  5
25C
102
{ACAD_REACTORS
330
25B
102
}
330
25B
100
AcDbXrecord
280
     1
102
SHADEPLOT
 70
     0
102
SHADEPLOTRESLEVEL
 70
     2
102
SHADEPLOTCUSTOMDPI
 70
   300
  0
XRECORD
  5
260
102
{ACAD_REACTORS
330
25F
102
}
330
25F
100
AcDbXrecord
280
     1
102
SHADEPLOT
 70
     0
102
SHADEPLOTRESLEVEL
 70
     2
102
SHADEPLOTCUSTOMDPI
 70
   300
  0
XRECORD
  5
25E
102
{ACAD_REACTORS
330
25D
102
}
330
25D
100
AcDbXrecord
280
     1
102
SHADEPLOT
 70
     0
102
SHADEPLOTRESLEVEL
 70
     2
102
SHADEPLOTCUSTOMDPI
 70
   300
  0
ENDSEC
  0
EOF
